Freebie : Yamaha Kit with Complete TX16WX Patch

Sampler and Sampling discussion (techniques, tips and tricks, etc.)
Burzukh_Studios
KVRian
644 posts since 24 Aug, 2011 from Melbourne , Australia

Post Sat May 10, 2014 11:21 pm

Im sure some of you know about this nice FREE kit, but I spent last week mapping and trouble shooting this kit in the tx16wx sampler (with the tx16wx developer and Reaper forum members) so others can just plug and play :).


PLEASE READ AND FOLLOW THE BELOW INSTRUCTIONS IN THEIR ENTIRETY

This is the kit :
http://www.drumdrops.com/drum-samples/y ... it/buy-kit

Get the the "All Samples Pack" (Around 1.7 GB). Do not modify the folder or file names or paths in any way aftrer unzipping.


You need the latest beta for the sampler from here :
http://www.tx16wx.com/downloads/prereleases

When you first open the project, it will ask you for the first sample. You have to point it to the correct sample :

blah blah\ your path\ yadda yadda ... \2014_04_17_Yamaha_Hybrid_AS_Pack_V1\Yamaha Hybrid All Samples Pack\Kontakt Pack Samples

99 % chances it will ask for YAMC_KICK_FTCL_HT_003_V1_RR1.wav which is the first sample in the felt kick folder. Once you select that sample everything else will be populated automtically . This takes around 10 sec the first time on my machine.

NOW regarding use :
The drumkit is mapped to GM drum map.
The switching all done via midi cc messages.

SNARES : Damped / Undamped switching via mod wheel (midi cc 1)

HI HATS : three degrees of closed / three degrees of open / two types of foot pedal via midi cc 2 (breath controller)

Tod's now classic midi drum file included. So you just need to press play and enjoy this very nice kit.

The TX16WX patch and Reaper project is here :
https://dl.dropboxusercontent.com/u/516 ... TX16WX.zip

If you have another DAW , just load the included performance patch into a tx16wx instance running in your DAW of choice.

I am not kidding when I say that this is one fo the best / most natural sounding kits I have heard in a while.

User avatar
filter303
KVRian
622 posts since 14 Jun, 2006 from Finland

Post Sat May 10, 2014 11:45 pm

wow.. thanks a ton!!!

DSmolken
KVRAF
1908 posts since 20 Sep, 2013 from Poland

Post Sat May 10, 2014 11:57 pm

Wow, that must have been an epic task. I don't have tx16wx but I'm considering downloading it. I already have the samples...

I hope you don't mind me going somewhat off-topic here, but has anybody done SFZ mappings for this kit?

Burzukh_Studios
KVRian

Topic Starter

644 posts since 24 Aug, 2011 from Melbourne , Australia

Post Sun May 11, 2014 1:30 am

I started the sfz, but didnt have time to complete it. Its miles and miles of text.

There are 16 velocity layers, 3 round robins and close mic, overheads and room mics for each. In other words, its a type till you die situation.

tx16wx was waaaay faster with the wave matrices . All graphipcal drap n drop and click.

The sfz were a pain, but i wish "someone" would do them. For example these are the kicks only (untested) :

<global> // Kicks - Close Mics
loop_mode=one_shot

<group> // Kick Plastic - Close Mic
seq_length=3
key=35

<region> seq_position=1
lovel=0 hivel=7 sample=KICK\PLASTIC\YAMC_KICK_PLCL_HT_003_V1_RR1.wav
lovel=8 hivel=15 sample=KICK\PLASTIC\YAMC_KICK_PLCL_HT_003_V2_RR1.wav
lovel=16 hivel=23 sample=KICK\PLASTIC\YAMC_KICK_PLCL_HT_003_V3_RR1.wav
lovel=24 hivel=31 sample=KICK\PLASTIC\YAMC_KICK_PLCL_HT_003_V4_RR1.wav
lovel=32 hivel=39 sample=KICK\PLASTIC\YAMC_KICK_PLCL_HT_003_V5_RR1.wav
lovel=40 hivel=47 sample=KICK\PLASTIC\YAMC_KICK_PLCL_HT_003_V6_RR1.wav
lovel=48 hivel=55 sample=KICK\PLASTIC\YAMC_KICK_PLCL_HT_003_V7_RR1.wav
lovel=56 hivel=63 sample=KICK\PLASTIC\YAMC_KICK_PLCL_HT_003_V8_RR1.wav
lovel=64 hivel=71 sample=KICK\PLASTIC\YAMC_KICK_PLCL_HT_003_V9_RR1.wav
lovel=72 hivel=79 sample=KICK\PLASTIC\YAMC_KICK_PLCL_HT_003_V10_RR1.wav
lovel=80 hivel=87 sample=KICK\PLASTIC\YAMC_KICK_PLCL_HT_003_V11_RR1.wav
lovel=88 hivel=95 sample=KICK\PLASTIC\YAMC_KICK_PLCL_HT_003_V12_RR1.wav
lovel=96 hivel=103 sample=KICK\PLASTIC\YAMC_KICK_PLCL_HT_003_V13_RR1.wav
lovel=104 hivel=111 sample=KICK\PLASTIC\YAMC_KICK_PLCL_HT_003_V14_RR1.wav
lovel=112 hivel=119 sample=KICK\PLASTIC\YAMC_KICK_PLCL_HT_003_V15_RR1.wav
lovel=120 hivel=127 sample=KICK\PLASTIC\YAMC_KICK_PLCL_HT_003_V16_RR1.wav

<region> seq_position=2
lovel=0 hivel=7 sample=KICK\PLASTIC\YAMC_KICK_PLCL_HT_003_V1_RR2.wav
lovel=8 hivel=15 sample=KICK\PLASTIC\YAMC_KICK_PLCL_HT_003_V2_RR2.wav
lovel=16 hivel=23 sample=KICK\PLASTIC\YAMC_KICK_PLCL_HT_003_V3_RR2.wav
lovel=24 hivel=31 sample=KICK\PLASTIC\YAMC_KICK_PLCL_HT_003_V4_RR2.wav
lovel=32 hivel=39 sample=KICK\PLASTIC\YAMC_KICK_PLCL_HT_003_V5_RR2.wav
lovel=40 hivel=47 sample=KICK\PLASTIC\YAMC_KICK_PLCL_HT_003_V6_RR2.wav
lovel=48 hivel=55 sample=KICK\PLASTIC\YAMC_KICK_PLCL_HT_003_V7_RR2.wav
lovel=56 hivel=63 sample=KICK\PLASTIC\YAMC_KICK_PLCL_HT_003_V8_RR2.wav
lovel=64 hivel=71 sample=KICK\PLASTIC\YAMC_KICK_PLCL_HT_003_V9_RR2.wav
lovel=72 hivel=79 sample=KICK\PLASTIC\YAMC_KICK_PLCL_HT_003_V10_RR2.wav
lovel=80 hivel=87 sample=KICK\PLASTIC\YAMC_KICK_PLCL_HT_003_V11_RR2.wav
lovel=88 hivel=95 sample=KICK\PLASTIC\YAMC_KICK_PLCL_HT_003_V12_RR2.wav
lovel=96 hivel=103 sample=KICK\PLASTIC\YAMC_KICK_PLCL_HT_003_V13_RR2.wav
lovel=104 hivel=111 sample=KICK\PLASTIC\YAMC_KICK_PLCL_HT_003_V14_RR2.wav
lovel=112 hivel=119 sample=KICK\PLASTIC\YAMC_KICK_PLCL_HT_003_V15_RR2.wav
lovel=120 hivel=127 sample=KICK\PLASTIC\YAMC_KICK_PLCL_HT_003_V16_RR2.wav

<region> seq_position=3
lovel=0 hivel=7 sample=KICK\PLASTIC\YAMC_KICK_PLCL_HT_003_V1_RR3.wav
lovel=8 hivel=15 sample=KICK\PLASTIC\YAMC_KICK_PLCL_HT_003_V2_RR3.wav
lovel=16 hivel=23 sample=KICK\PLASTIC\YAMC_KICK_PLCL_HT_003_V3_RR3.wav
lovel=24 hivel=31 sample=KICK\PLASTIC\YAMC_KICK_PLCL_HT_003_V4_RR3.wav
lovel=32 hivel=39 sample=KICK\PLASTIC\YAMC_KICK_PLCL_HT_003_V5_RR3.wav
lovel=40 hivel=47 sample=KICK\PLASTIC\YAMC_KICK_PLCL_HT_003_V6_RR3.wav
lovel=48 hivel=55 sample=KICK\PLASTIC\YAMC_KICK_PLCL_HT_003_V7_RR3.wav
lovel=56 hivel=63 sample=KICK\PLASTIC\YAMC_KICK_PLCL_HT_003_V8_RR3.wav
lovel=64 hivel=71 sample=KICK\PLASTIC\YAMC_KICK_PLCL_HT_003_V9_RR3.wav
lovel=72 hivel=79 sample=KICK\PLASTIC\YAMC_KICK_PLCL_HT_003_V10_RR3.wav
lovel=80 hivel=87 sample=KICK\PLASTIC\YAMC_KICK_PLCL_HT_003_V11_RR3.wav
lovel=88 hivel=95 sample=KICK\PLASTIC\YAMC_KICK_PLCL_HT_003_V12_RR3.wav
lovel=96 hivel=103 sample=KICK\PLASTIC\YAMC_KICK_PLCL_HT_003_V13_RR3.wav
lovel=104 hivel=111 sample=KICK\PLASTIC\YAMC_KICK_PLCL_HT_003_V14_RR3.wav
lovel=112 hivel=119 sample=KICK\PLASTIC\YAMC_KICK_PLCL_HT_003_V15_RR3.wav
lovel=120 hivel=127 sample=KICK\PLASTIC\YAMC_KICK_PLCL_HT_003_V16_RR3.wav

<group> // Kick Felt - Close Mic
seq_length=3
key=36

<region> seq_position=1
lovel=0 hivel=7 sample=KICK\FELT\YAMC_KICK_FTCL_HT_003_V1_RR1.wav
lovel=8 hivel=15 sample=KICK\FELT\YAMC_KICK_FTCL_HT_003_V2_RR1.wav
lovel=16 hivel=23 sample=KICK\FELT\YAMC_KICK_FTCL_HT_003_V3_RR1.wav
lovel=24 hivel=31 sample=KICK\FELT\YAMC_KICK_FTCL_HT_003_V4_RR1.wav
lovel=32 hivel=39 sample=KICK\FELT\YAMC_KICK_FTCL_HT_003_V5_RR1.wav
lovel=40 hivel=47 sample=KICK\FELT\YAMC_KICK_FTCL_HT_003_V6_RR1.wav
lovel=48 hivel=55 sample=KICK\FELT\YAMC_KICK_FTCL_HT_003_V7_RR1.wav
lovel=56 hivel=63 sample=KICK\FELT\YAMC_KICK_FTCL_HT_003_V8_RR1.wav
lovel=64 hivel=71 sample=KICK\FELT\YAMC_KICK_FTCL_HT_003_V9_RR1.wav
lovel=72 hivel=79 sample=KICK\FELT\YAMC_KICK_FTCL_HT_003_V10_RR1.wav
lovel=80 hivel=87 sample=KICK\FELT\YAMC_KICK_FTCL_HT_003_V11_RR1.wav
lovel=88 hivel=95 sample=KICK\FELT\YAMC_KICK_FTCL_HT_003_V12_RR1.wav
lovel=96 hivel=103 sample=KICK\FELT\YAMC_KICK_FTCL_HT_003_V13_RR1.wav
lovel=104 hivel=111 sample=KICK\FELT\YAMC_KICK_FTCL_HT_003_V14_RR1.wav
lovel=112 hivel=119 sample=KICK\FELT\YAMC_KICK_FTCL_HT_003_V15_RR1.wav
lovel=120 hivel=127 sample=KICK\FELT\YAMC_KICK_FTCL_HT_003_V16_RR1.wav

<region> seq_position=2
lovel=0 hivel=7 sample=KICK\FELT\YAMC_KICK_FTCL_HT_003_V1_RR2.wav
lovel=8 hivel=15 sample=KICK\FELT\YAMC_KICK_FTCL_HT_003_V2_RR2.wav
lovel=16 hivel=23 sample=KICK\FELT\YAMC_KICK_FTCL_HT_003_V3_RR2.wav
lovel=24 hivel=31 sample=KICK\FELT\YAMC_KICK_FTCL_HT_003_V4_RR2.wav
lovel=32 hivel=39 sample=KICK\FELT\YAMC_KICK_FTCL_HT_003_V5_RR2.wav
lovel=40 hivel=47 sample=KICK\FELT\YAMC_KICK_FTCL_HT_003_V6_RR2.wav
lovel=48 hivel=55 sample=KICK\FELT\YAMC_KICK_FTCL_HT_003_V7_RR2.wav
lovel=56 hivel=63 sample=KICK\FELT\YAMC_KICK_FTCL_HT_003_V8_RR2.wav
lovel=64 hivel=71 sample=KICK\FELT\YAMC_KICK_FTCL_HT_003_V9_RR2.wav
lovel=72 hivel=79 sample=KICK\FELT\YAMC_KICK_FTCL_HT_003_V10_RR2.wav
lovel=80 hivel=87 sample=KICK\FELT\YAMC_KICK_FTCL_HT_003_V11_RR2.wav
lovel=88 hivel=95 sample=KICK\FELT\YAMC_KICK_FTCL_HT_003_V12_RR2.wav
lovel=96 hivel=103 sample=KICK\FELT\YAMC_KICK_FTCL_HT_003_V13_RR2.wav
lovel=104 hivel=111 sample=KICK\FELT\YAMC_KICK_FTCL_HT_003_V14_RR2.wav
lovel=112 hivel=119 sample=KICK\FELT\YAMC_KICK_FTCL_HT_003_V15_RR2.wav
lovel=120 hivel=127 sample=KICK\FELT\YAMC_KICK_FTCL_HT_003_V16_RR2.wav

<region> seq_position=3
lovel=0 hivel=7 sample=KICK\FELT\YAMC_KICK_FTCL_HT_003_V1_RR3.wav
lovel=8 hivel=15 sample=KICK\FELT\YAMC_KICK_FTCL_HT_003_V2_RR3.wav
lovel=16 hivel=23 sample=KICK\FELT\YAMC_KICK_FTCL_HT_003_V3_RR3.wav
lovel=24 hivel=31 sample=KICK\FELT\YAMC_KICK_FTCL_HT_003_V4_RR3.wav
lovel=32 hivel=39 sample=KICK\FELT\YAMC_KICK_FTCL_HT_003_V5_RR3.wav
lovel=40 hivel=47 sample=KICK\FELT\YAMC_KICK_FTCL_HT_003_V6_RR3.wav
lovel=48 hivel=55 sample=KICK\FELT\YAMC_KICK_FTCL_HT_003_V7_RR3.wav
lovel=56 hivel=63 sample=KICK\FELT\YAMC_KICK_FTCL_HT_003_V8_RR3.wav
lovel=64 hivel=71 sample=KICK\FELT\YAMC_KICK_FTCL_HT_003_V9_RR3.wav
lovel=72 hivel=79 sample=KICK\FELT\YAMC_KICK_FTCL_HT_003_V10_RR3.wav
lovel=80 hivel=87 sample=KICK\FELT\YAMC_KICK_FTCL_HT_003_V11_RR3.wav
lovel=88 hivel=95 sample=KICK\FELT\YAMC_KICK_FTCL_HT_003_V12_RR3.wav
lovel=96 hivel=103 sample=KICK\FELT\YAMC_KICK_FTCL_HT_003_V13_RR3.wav
lovel=104 hivel=111 sample=KICK\FELT\YAMC_KICK_FTCL_HT_003_V14_RR3.wav
lovel=112 hivel=119 sample=KICK\FELT\YAMC_KICK_FTCL_HT_003_V15_RR3.wav
lovel=120 hivel=127 sample=KICK\FELT\YAMC_KICK_FTCL_HT_003_V16_RR3.wav





<group> // Kick Plastic - Overhead Mic
seq_length=3
key=35

<region> seq_position=1
lovel=0 hivel=7 sample=KICK\PLASTIC\YAMC_KICK_PLOH_HT_003_V1_RR1.wav
lovel=8 hivel=15 sample=KICK\PLASTIC\YAMC_KICK_PLOH_HT_003_V2_RR1.wav
lovel=16 hivel=23 sample=KICK\PLASTIC\YAMC_KICK_PLOH_HT_003_V3_RR1.wav
lovel=24 hivel=31 sample=KICK\PLASTIC\YAMC_KICK_PLOH_HT_003_V4_RR1.wav
lovel=32 hivel=39 sample=KICK\PLASTIC\YAMC_KICK_PLOH_HT_003_V5_RR1.wav
lovel=40 hivel=47 sample=KICK\PLASTIC\YAMC_KICK_PLOH_HT_003_V6_RR1.wav
lovel=48 hivel=55 sample=KICK\PLASTIC\YAMC_KICK_PLOH_HT_003_V7_RR1.wav
lovel=56 hivel=63 sample=KICK\PLASTIC\YAMC_KICK_PLOH_HT_003_V8_RR1.wav
lovel=64 hivel=71 sample=KICK\PLASTIC\YAMC_KICK_PLOH_HT_003_V9_RR1.wav
lovel=72 hivel=79 sample=KICK\PLASTIC\YAMC_KICK_PLOH_HT_003_V10_RR1.wav
lovel=80 hivel=87 sample=KICK\PLASTIC\YAMC_KICK_PLOH_HT_003_V11_RR1.wav
lovel=88 hivel=95 sample=KICK\PLASTIC\YAMC_KICK_PLOH_HT_003_V12_RR1.wav
lovel=96 hivel=103 sample=KICK\PLASTIC\YAMC_KICK_PLOH_HT_003_V13_RR1.wav
lovel=104 hivel=111 sample=KICK\PLASTIC\YAMC_KICK_PLOH_HT_003_V14_RR1.wav
lovel=112 hivel=119 sample=KICK\PLASTIC\YAMC_KICK_PLOH_HT_003_V15_RR1.wav
lovel=120 hivel=127 sample=KICK\PLASTIC\YAMC_KICK_PLOH_HT_003_V16_RR1.wav

<region> seq_position=2
lovel=0 hivel=7 sample=KICK\PLASTIC\YAMC_KICK_PLOH_HT_003_V1_RR2.wav
lovel=8 hivel=15 sample=KICK\PLASTIC\YAMC_KICK_PLOH_HT_003_V2_RR2.wav
lovel=16 hivel=23 sample=KICK\PLASTIC\YAMC_KICK_PLOH_HT_003_V3_RR2.wav
lovel=24 hivel=31 sample=KICK\PLASTIC\YAMC_KICK_PLOH_HT_003_V4_RR2.wav
lovel=32 hivel=39 sample=KICK\PLASTIC\YAMC_KICK_PLOH_HT_003_V5_RR2.wav
lovel=40 hivel=47 sample=KICK\PLASTIC\YAMC_KICK_PLOH_HT_003_V6_RR2.wav
lovel=48 hivel=55 sample=KICK\PLASTIC\YAMC_KICK_PLOH_HT_003_V7_RR2.wav
lovel=56 hivel=63 sample=KICK\PLASTIC\YAMC_KICK_PLOH_HT_003_V8_RR2.wav
lovel=64 hivel=71 sample=KICK\PLASTIC\YAMC_KICK_PLOH_HT_003_V9_RR2.wav
lovel=72 hivel=79 sample=KICK\PLASTIC\YAMC_KICK_PLOH_HT_003_V10_RR2.wav
lovel=80 hivel=87 sample=KICK\PLASTIC\YAMC_KICK_PLOH_HT_003_V11_RR2.wav
lovel=88 hivel=95 sample=KICK\PLASTIC\YAMC_KICK_PLOH_HT_003_V12_RR2.wav
lovel=96 hivel=103 sample=KICK\PLASTIC\YAMC_KICK_PLOH_HT_003_V13_RR2.wav
lovel=104 hivel=111 sample=KICK\PLASTIC\YAMC_KICK_PLOH_HT_003_V14_RR2.wav
lovel=112 hivel=119 sample=KICK\PLASTIC\YAMC_KICK_PLOH_HT_003_V15_RR2.wav
lovel=120 hivel=127 sample=KICK\PLASTIC\YAMC_KICK_PLOH_HT_003_V16_RR2.wav

<region> seq_position=3
lovel=0 hivel=7 sample=KICK\PLASTIC\YAMC_KICK_PLOH_HT_003_V1_RR3.wav
lovel=8 hivel=15 sample=KICK\PLASTIC\YAMC_KICK_PLOH_HT_003_V2_RR3.wav
lovel=16 hivel=23 sample=KICK\PLASTIC\YAMC_KICK_PLOH_HT_003_V3_RR3.wav
lovel=24 hivel=31 sample=KICK\PLASTIC\YAMC_KICK_PLOH_HT_003_V4_RR3.wav
lovel=32 hivel=39 sample=KICK\PLASTIC\YAMC_KICK_PLOH_HT_003_V5_RR3.wav
lovel=40 hivel=47 sample=KICK\PLASTIC\YAMC_KICK_PLOH_HT_003_V6_RR3.wav
lovel=48 hivel=55 sample=KICK\PLASTIC\YAMC_KICK_PLOH_HT_003_V7_RR3.wav
lovel=56 hivel=63 sample=KICK\PLASTIC\YAMC_KICK_PLOH_HT_003_V8_RR3.wav
lovel=64 hivel=71 sample=KICK\PLASTIC\YAMC_KICK_PLOH_HT_003_V9_RR3.wav
lovel=72 hivel=79 sample=KICK\PLASTIC\YAMC_KICK_PLOH_HT_003_V10_RR3.wav
lovel=80 hivel=87 sample=KICK\PLASTIC\YAMC_KICK_PLOH_HT_003_V11_RR3.wav
lovel=88 hivel=95 sample=KICK\PLASTIC\YAMC_KICK_PLOH_HT_003_V12_RR3.wav
lovel=96 hivel=103 sample=KICK\PLASTIC\YAMC_KICK_PLOH_HT_003_V13_RR3.wav
lovel=104 hivel=111 sample=KICK\PLASTIC\YAMC_KICK_PLOH_HT_003_V14_RR3.wav
lovel=112 hivel=119 sample=KICK\PLASTIC\YAMC_KICK_PLOH_HT_003_V15_RR3.wav
lovel=120 hivel=127 sample=KICK\PLASTIC\YAMC_KICK_PLOH_HT_003_V16_RR3.wav

<group> // Kick Felt - Overhead Mic
seq_length=3
key=36

<region> seq_position=1
lovel=0 hivel=7 sample=KICK\FELT\YAMC_KICK_FTOH_HT_003_V1_RR1.wav
lovel=8 hivel=15 sample=KICK\FELT\YAMC_KICK_FTOH_HT_003_V2_RR1.wav
lovel=16 hivel=23 sample=KICK\FELT\YAMC_KICK_FTOH_HT_003_V3_RR1.wav
lovel=24 hivel=31 sample=KICK\FELT\YAMC_KICK_FTOH_HT_003_V4_RR1.wav
lovel=32 hivel=39 sample=KICK\FELT\YAMC_KICK_FTOH_HT_003_V5_RR1.wav
lovel=40 hivel=47 sample=KICK\FELT\YAMC_KICK_FTOH_HT_003_V6_RR1.wav
lovel=48 hivel=55 sample=KICK\FELT\YAMC_KICK_FTOH_HT_003_V7_RR1.wav
lovel=56 hivel=63 sample=KICK\FELT\YAMC_KICK_FTOH_HT_003_V8_RR1.wav
lovel=64 hivel=71 sample=KICK\FELT\YAMC_KICK_FTOH_HT_003_V9_RR1.wav
lovel=72 hivel=79 sample=KICK\FELT\YAMC_KICK_FTOH_HT_003_V10_RR1.wav
lovel=80 hivel=87 sample=KICK\FELT\YAMC_KICK_FTOH_HT_003_V11_RR1.wav
lovel=88 hivel=95 sample=KICK\FELT\YAMC_KICK_FTOH_HT_003_V12_RR1.wav
lovel=96 hivel=103 sample=KICK\FELT\YAMC_KICK_FTOH_HT_003_V13_RR1.wav
lovel=104 hivel=111 sample=KICK\FELT\YAMC_KICK_FTOH_HT_003_V14_RR1.wav
lovel=112 hivel=119 sample=KICK\FELT\YAMC_KICK_FTOH_HT_003_V15_RR1.wav
lovel=120 hivel=127 sample=KICK\FELT\YAMC_KICK_FTOH_HT_003_V16_RR1.wav

<region> seq_position=2
lovel=0 hivel=7 sample=KICK\FELT\YAMC_KICK_FTOH_HT_003_V1_RR2.wav
lovel=8 hivel=15 sample=KICK\FELT\YAMC_KICK_FTOH_HT_003_V2_RR2.wav
lovel=16 hivel=23 sample=KICK\FELT\YAMC_KICK_FTOH_HT_003_V3_RR2.wav
lovel=24 hivel=31 sample=KICK\FELT\YAMC_KICK_FTOH_HT_003_V4_RR2.wav
lovel=32 hivel=39 sample=KICK\FELT\YAMC_KICK_FTOH_HT_003_V5_RR2.wav
lovel=40 hivel=47 sample=KICK\FELT\YAMC_KICK_FTOH_HT_003_V6_RR2.wav
lovel=48 hivel=55 sample=KICK\FELT\YAMC_KICK_FTOH_HT_003_V7_RR2.wav
lovel=56 hivel=63 sample=KICK\FELT\YAMC_KICK_FTOH_HT_003_V8_RR2.wav
lovel=64 hivel=71 sample=KICK\FELT\YAMC_KICK_FTOH_HT_003_V9_RR2.wav
lovel=72 hivel=79 sample=KICK\FELT\YAMC_KICK_FTOH_HT_003_V10_RR2.wav
lovel=80 hivel=87 sample=KICK\FELT\YAMC_KICK_FTOH_HT_003_V11_RR2.wav
lovel=88 hivel=95 sample=KICK\FELT\YAMC_KICK_FTOH_HT_003_V12_RR2.wav
lovel=96 hivel=103 sample=KICK\FELT\YAMC_KICK_FTOH_HT_003_V13_RR2.wav
lovel=104 hivel=111 sample=KICK\FELT\YAMC_KICK_FTOH_HT_003_V14_RR2.wav
lovel=112 hivel=119 sample=KICK\FELT\YAMC_KICK_FTOH_HT_003_V15_RR2.wav
lovel=120 hivel=127 sample=KICK\FELT\YAMC_KICK_FTOH_HT_003_V16_RR2.wav

<region> seq_position=3
lovel=0 hivel=7 sample=KICK\FELT\YAMC_KICK_FTOH_HT_003_V1_RR3.wav
lovel=8 hivel=15 sample=KICK\FELT\YAMC_KICK_FTOH_HT_003_V2_RR3.wav
lovel=16 hivel=23 sample=KICK\FELT\YAMC_KICK_FTOH_HT_003_V3_RR3.wav
lovel=24 hivel=31 sample=KICK\FELT\YAMC_KICK_FTOH_HT_003_V4_RR3.wav
lovel=32 hivel=39 sample=KICK\FELT\YAMC_KICK_FTOH_HT_003_V5_RR3.wav
lovel=40 hivel=47 sample=KICK\FELT\YAMC_KICK_FTOH_HT_003_V6_RR3.wav
lovel=48 hivel=55 sample=KICK\FELT\YAMC_KICK_FTOH_HT_003_V7_RR3.wav
lovel=56 hivel=63 sample=KICK\FELT\YAMC_KICK_FTOH_HT_003_V8_RR3.wav
lovel=64 hivel=71 sample=KICK\FELT\YAMC_KICK_FTOH_HT_003_V9_RR3.wav
lovel=72 hivel=79 sample=KICK\FELT\YAMC_KICK_FTOH_HT_003_V10_RR3.wav
lovel=80 hivel=87 sample=KICK\FELT\YAMC_KICK_FTOH_HT_003_V11_RR3.wav
lovel=88 hivel=95 sample=KICK\FELT\YAMC_KICK_FTOH_HT_003_V12_RR3.wav
lovel=96 hivel=103 sample=KICK\FELT\YAMC_KICK_FTOH_HT_003_V13_RR3.wav
lovel=104 hivel=111 sample=KICK\FELT\YAMC_KICK_FTOH_HT_003_V14_RR3.wav
lovel=112 hivel=119 sample=KICK\FELT\YAMC_KICK_FTOH_HT_003_V15_RR3.wav
lovel=120 hivel=127 sample=KICK\FELT\YAMC_KICK_FTOH_HT_003_V16_RR3.wav




<group> // Kick Plastic - Room Mic
seq_length=3
key=35

<region> seq_position=1
lovel=0 hivel=7 sample=KICK\PLASTIC\YAMC_KICK_PLRM_HT_003_V1_RR1.wav
lovel=8 hivel=15 sample=KICK\PLASTIC\YAMC_KICK_PLRM_HT_003_V2_RR1.wav
lovel=16 hivel=23 sample=KICK\PLASTIC\YAMC_KICK_PLRM_HT_003_V3_RR1.wav
lovel=24 hivel=31 sample=KICK\PLASTIC\YAMC_KICK_PLRM_HT_003_V4_RR1.wav
lovel=32 hivel=39 sample=KICK\PLASTIC\YAMC_KICK_PLRM_HT_003_V5_RR1.wav
lovel=40 hivel=47 sample=KICK\PLASTIC\YAMC_KICK_PLRM_HT_003_V6_RR1.wav
lovel=48 hivel=55 sample=KICK\PLASTIC\YAMC_KICK_PLRM_HT_003_V7_RR1.wav
lovel=56 hivel=63 sample=KICK\PLASTIC\YAMC_KICK_PLRM_HT_003_V8_RR1.wav
lovel=64 hivel=71 sample=KICK\PLASTIC\YAMC_KICK_PLRM_HT_003_V9_RR1.wav
lovel=72 hivel=79 sample=KICK\PLASTIC\YAMC_KICK_PLRM_HT_003_V10_RR1.wav
lovel=80 hivel=87 sample=KICK\PLASTIC\YAMC_KICK_PLRM_HT_003_V11_RR1.wav
lovel=88 hivel=95 sample=KICK\PLASTIC\YAMC_KICK_PLRM_HT_003_V12_RR1.wav
lovel=96 hivel=103 sample=KICK\PLASTIC\YAMC_KICK_PLRM_HT_003_V13_RR1.wav
lovel=104 hivel=111 sample=KICK\PLASTIC\YAMC_KICK_PLRM_HT_003_V14_RR1.wav
lovel=112 hivel=119 sample=KICK\PLASTIC\YAMC_KICK_PLRM_HT_003_V15_RR1.wav
lovel=120 hivel=127 sample=KICK\PLASTIC\YAMC_KICK_PLRM_HT_003_V16_RR1.wav

<region> seq_position=2
lovel=0 hivel=7 sample=KICK\PLASTIC\YAMC_KICK_PLRM_HT_003_V1_RR2.wav
lovel=8 hivel=15 sample=KICK\PLASTIC\YAMC_KICK_PLRM_HT_003_V2_RR2.wav
lovel=16 hivel=23 sample=KICK\PLASTIC\YAMC_KICK_PLRM_HT_003_V3_RR2.wav
lovel=24 hivel=31 sample=KICK\PLASTIC\YAMC_KICK_PLRM_HT_003_V4_RR2.wav
lovel=32 hivel=39 sample=KICK\PLASTIC\YAMC_KICK_PLRM_HT_003_V5_RR2.wav
lovel=40 hivel=47 sample=KICK\PLASTIC\YAMC_KICK_PLRM_HT_003_V6_RR2.wav
lovel=48 hivel=55 sample=KICK\PLASTIC\YAMC_KICK_PLRM_HT_003_V7_RR2.wav
lovel=56 hivel=63 sample=KICK\PLASTIC\YAMC_KICK_PLRM_HT_003_V8_RR2.wav
lovel=64 hivel=71 sample=KICK\PLASTIC\YAMC_KICK_PLRM_HT_003_V9_RR2.wav
lovel=72 hivel=79 sample=KICK\PLASTIC\YAMC_KICK_PLRM_HT_003_V10_RR2.wav
lovel=80 hivel=87 sample=KICK\PLASTIC\YAMC_KICK_PLRM_HT_003_V11_RR2.wav
lovel=88 hivel=95 sample=KICK\PLASTIC\YAMC_KICK_PLRM_HT_003_V12_RR2.wav
lovel=96 hivel=103 sample=KICK\PLASTIC\YAMC_KICK_PLRM_HT_003_V13_RR2.wav
lovel=104 hivel=111 sample=KICK\PLASTIC\YAMC_KICK_PLRM_HT_003_V14_RR2.wav
lovel=112 hivel=119 sample=KICK\PLASTIC\YAMC_KICK_PLRM_HT_003_V15_RR2.wav
lovel=120 hivel=127 sample=KICK\PLASTIC\YAMC_KICK_PLRM_HT_003_V16_RR2.wav

<region> seq_position=3
lovel=0 hivel=7 sample=KICK\PLASTIC\YAMC_KICK_PLRM_HT_003_V1_RR3.wav
lovel=8 hivel=15 sample=KICK\PLASTIC\YAMC_KICK_PLRM_HT_003_V2_RR3.wav
lovel=16 hivel=23 sample=KICK\PLASTIC\YAMC_KICK_PLRM_HT_003_V3_RR3.wav
lovel=24 hivel=31 sample=KICK\PLASTIC\YAMC_KICK_PLRM_HT_003_V4_RR3.wav
lovel=32 hivel=39 sample=KICK\PLASTIC\YAMC_KICK_PLRM_HT_003_V5_RR3.wav
lovel=40 hivel=47 sample=KICK\PLASTIC\YAMC_KICK_PLRM_HT_003_V6_RR3.wav
lovel=48 hivel=55 sample=KICK\PLASTIC\YAMC_KICK_PLRM_HT_003_V7_RR3.wav
lovel=56 hivel=63 sample=KICK\PLASTIC\YAMC_KICK_PLRM_HT_003_V8_RR3.wav
lovel=64 hivel=71 sample=KICK\PLASTIC\YAMC_KICK_PLRM_HT_003_V9_RR3.wav
lovel=72 hivel=79 sample=KICK\PLASTIC\YAMC_KICK_PLRM_HT_003_V10_RR3.wav
lovel=80 hivel=87 sample=KICK\PLASTIC\YAMC_KICK_PLRM_HT_003_V11_RR3.wav
lovel=88 hivel=95 sample=KICK\PLASTIC\YAMC_KICK_PLRM_HT_003_V12_RR3.wav
lovel=96 hivel=103 sample=KICK\PLASTIC\YAMC_KICK_PLRM_HT_003_V13_RR3.wav
lovel=104 hivel=111 sample=KICK\PLASTIC\YAMC_KICK_PLRM_HT_003_V14_RR3.wav
lovel=112 hivel=119 sample=KICK\PLASTIC\YAMC_KICK_PLRM_HT_003_V15_RR3.wav
lovel=120 hivel=127 sample=KICK\PLASTIC\YAMC_KICK_PLRM_HT_003_V16_RR3.wav

<group> // Kick Felt - Room Mic
seq_length=3
key=36

<region> seq_position=1
lovel=0 hivel=7 sample=KICK\FELT\YAMC_KICK_FTRM_HT_003_V1_RR1.wav
lovel=8 hivel=15 sample=KICK\FELT\YAMC_KICK_FTRM_HT_003_V2_RR1.wav
lovel=16 hivel=23 sample=KICK\FELT\YAMC_KICK_FTRM_HT_003_V3_RR1.wav
lovel=24 hivel=31 sample=KICK\FELT\YAMC_KICK_FTRM_HT_003_V4_RR1.wav
lovel=32 hivel=39 sample=KICK\FELT\YAMC_KICK_FTRM_HT_003_V5_RR1.wav
lovel=40 hivel=47 sample=KICK\FELT\YAMC_KICK_FTRM_HT_003_V6_RR1.wav
lovel=48 hivel=55 sample=KICK\FELT\YAMC_KICK_FTRM_HT_003_V7_RR1.wav
lovel=56 hivel=63 sample=KICK\FELT\YAMC_KICK_FTRM_HT_003_V8_RR1.wav
lovel=64 hivel=71 sample=KICK\FELT\YAMC_KICK_FTRM_HT_003_V9_RR1.wav
lovel=72 hivel=79 sample=KICK\FELT\YAMC_KICK_FTRM_HT_003_V10_RR1.wav
lovel=80 hivel=87 sample=KICK\FELT\YAMC_KICK_FTRM_HT_003_V11_RR1.wav
lovel=88 hivel=95 sample=KICK\FELT\YAMC_KICK_FTRM_HT_003_V12_RR1.wav
lovel=96 hivel=103 sample=KICK\FELT\YAMC_KICK_FTRM_HT_003_V13_RR1.wav
lovel=104 hivel=111 sample=KICK\FELT\YAMC_KICK_FTRM_HT_003_V14_RR1.wav
lovel=112 hivel=119 sample=KICK\FELT\YAMC_KICK_FTRM_HT_003_V15_RR1.wav
lovel=120 hivel=127 sample=KICK\FELT\YAMC_KICK_FTRM_HT_003_V16_RR1.wav

<region> seq_position=2
lovel=0 hivel=7 sample=KICK\FELT\YAMC_KICK_FTRM_HT_003_V1_RR2.wav
lovel=8 hivel=15 sample=KICK\FELT\YAMC_KICK_FTRM_HT_003_V2_RR2.wav
lovel=16 hivel=23 sample=KICK\FELT\YAMC_KICK_FTRM_HT_003_V3_RR2.wav
lovel=24 hivel=31 sample=KICK\FELT\YAMC_KICK_FTRM_HT_003_V4_RR2.wav
lovel=32 hivel=39 sample=KICK\FELT\YAMC_KICK_FTRM_HT_003_V5_RR2.wav
lovel=40 hivel=47 sample=KICK\FELT\YAMC_KICK_FTRM_HT_003_V6_RR2.wav
lovel=48 hivel=55 sample=KICK\FELT\YAMC_KICK_FTRM_HT_003_V7_RR2.wav
lovel=56 hivel=63 sample=KICK\FELT\YAMC_KICK_FTRM_HT_003_V8_RR2.wav
lovel=64 hivel=71 sample=KICK\FELT\YAMC_KICK_FTRM_HT_003_V9_RR2.wav
lovel=72 hivel=79 sample=KICK\FELT\YAMC_KICK_FTRM_HT_003_V10_RR2.wav
lovel=80 hivel=87 sample=KICK\FELT\YAMC_KICK_FTRM_HT_003_V11_RR2.wav
lovel=88 hivel=95 sample=KICK\FELT\YAMC_KICK_FTRM_HT_003_V12_RR2.wav
lovel=96 hivel=103 sample=KICK\FELT\YAMC_KICK_FTRM_HT_003_V13_RR2.wav
lovel=104 hivel=111 sample=KICK\FELT\YAMC_KICK_FTRM_HT_003_V14_RR2.wav
lovel=112 hivel=119 sample=KICK\FELT\YAMC_KICK_FTRM_HT_003_V15_RR2.wav
lovel=120 hivel=127 sample=KICK\FELT\YAMC_KICK_FTRM_HT_003_V16_RR2.wav

<region> seq_position=3
lovel=0 hivel=7 sample=KICK\FELT\YAMC_KICK_FTRM_HT_003_V1_RR3.wav
lovel=8 hivel=15 sample=KICK\FELT\YAMC_KICK_FTRM_HT_003_V2_RR3.wav
lovel=16 hivel=23 sample=KICK\FELT\YAMC_KICK_FTRM_HT_003_V3_RR3.wav
lovel=24 hivel=31 sample=KICK\FELT\YAMC_KICK_FTRM_HT_003_V4_RR3.wav
lovel=32 hivel=39 sample=KICK\FELT\YAMC_KICK_FTRM_HT_003_V5_RR3.wav
lovel=40 hivel=47 sample=KICK\FELT\YAMC_KICK_FTRM_HT_003_V6_RR3.wav
lovel=48 hivel=55 sample=KICK\FELT\YAMC_KICK_FTRM_HT_003_V7_RR3.wav
lovel=56 hivel=63 sample=KICK\FELT\YAMC_KICK_FTRM_HT_003_V8_RR3.wav
lovel=64 hivel=71 sample=KICK\FELT\YAMC_KICK_FTRM_HT_003_V9_RR3.wav
lovel=72 hivel=79 sample=KICK\FELT\YAMC_KICK_FTRM_HT_003_V10_RR3.wav
lovel=80 hivel=87 sample=KICK\FELT\YAMC_KICK_FTRM_HT_003_V11_RR3.wav
lovel=88 hivel=95 sample=KICK\FELT\YAMC_KICK_FTRM_HT_003_V12_RR3.wav
lovel=96 hivel=103 sample=KICK\FELT\YAMC_KICK_FTRM_HT_003_V13_RR3.wav
lovel=104 hivel=111 sample=KICK\FELT\YAMC_KICK_FTRM_HT_003_V14_RR3.wav
lovel=112 hivel=119 sample=KICK\FELT\YAMC_KICK_FTRM_HT_003_V15_RR3.wav
lovel=120 hivel=127 sample=KICK\FELT\YAMC_KICK_FTRM_HT_003_V16_RR3.wav

DSmolken
KVRAF
1908 posts since 20 Sep, 2013 from Poland

Post Sun May 11, 2014 1:54 am

Haha, yeah, very much a "lots of samples, lots of typing, I wish somebody else would do this so I don't have to" thing. Thanks for the kicks, since the other stuff should have the same number of velocity layers hopefully some of it can be done using these as a template and using search and replace instead of at least some of the typing.

User avatar
Baard
KVRist
358 posts since 27 Nov, 2009 from Norway

Post Sun May 11, 2014 2:20 am

Great work!

To generate long and complex SFZ files, I recommend working in a spreadsheet (to be able to select and/or copy blocks of text vertically), and heavy use of "Search and Replace" commands. There are also many text editors online that helps you with automated tasks.

With these techniques one can "easily" generate extremely complex SFZ's, like I did with ISW's Shreddage Bass here: http://impactsoundworks.com/extras/Shre ... esOnly.rar

Burzukh_Studios
KVRian

Topic Starter

644 posts since 24 Aug, 2011 from Melbourne , Australia

Post Sun May 11, 2014 3:21 am

Its excel all the way for sfz here too. Best way to do it.

Meanwhile do chk out the tx16wx.

xNiMiNx
KVRian
906 posts since 24 Mar, 2010

Post Sun May 11, 2014 12:30 pm

Baard wrote:Great work!

To generate long and complex SFZ files, I recommend working in a spreadsheet (to be able to select and/or copy blocks of text vertically), and heavy use of "Search and Replace" commands.
Most decent text editors have column mode editing. NotePad++ (freeware) has it, just hold alt while you select (np++ also has regular expressions in find/replace too).

I mention this just in case someone here might rather work with a text file than spreadsheet.

Image
Image

KVR Audio Forum Signature is currently unavailable for your web browser.

Burzukh_Studios
KVRian

Topic Starter

644 posts since 24 Aug, 2011 from Melbourne , Australia

Post Wed May 14, 2014 2:41 am

Just to add :

Spreadsheet software can do a LOT more than just replace text. You can generate text as per your requirements based on some smart formulas. Vey handy with large sfz files and repetitive sample names.

Metallica1234
KVRist
34 posts since 18 Oct, 2011

Post Fri Sep 12, 2014 3:55 pm

Thank you! but I think it's not for free anymore, only the single-hit option?

Return to “Samplers, Sampling & Sample Libraries”