ConvertWithMoss (prev. MultisampleGenerator) - convert multisamples from WAV,multisample,SFZ,SoundFont2,Decent Sampler

User avatar
KVRAF

Topic Starter

2980 posts since 13 May, 2004

Post Tue Aug 31, 2021 2:06 am

Tj Shredder wrote:
Tue Aug 31, 2021 1:45 am
Yes, btw. even the first xattr -lrv did not list anything. And what should have changed between the previous version of ConvertwWithMoss and the new one except for your build? Apple doesn't update Mojave except for security issues...
I did update Java in the past, but then the old version wouldn't run either...
I wonder if others experienced the same problem...
I could try to build it myself from the sources, but have no experience with this...
Java is integrated in the bundle, it doesn't matter what you have installed.
Sorry, the only tip I have is to download it again (maybe use something else than Safari?).

User avatar
KVRAF
6369 posts since 6 Jan, 2017 from Outer Space

Post Tue Aug 31, 2021 2:21 am

You mean something else than Firefox? ; - ) I'll try with Brave...
...
Nope, same story...
Where are the sources? I could try to build it myself...

User avatar
KVRAF

Topic Starter

2980 posts since 13 May, 2004

Post Tue Aug 31, 2021 7:16 am

Tj Shredder wrote:
Tue Aug 31, 2021 2:21 am
You mean something else than Firefox? ; - ) I'll try with Brave...
...
Nope, same story...
Where are the sources? I could try to build it myself...
https://github.com/git-moss/ConvertWithMoss

User avatar
KVRAF
6369 posts since 6 Jan, 2017 from Outer Space

Post Wed Sep 01, 2021 8:03 am

I got it running differently now. That's the procedure:
Disable the Gatekeeper with

Code: Select all

sudo spctl --master-disable
Open the app (works now)
Then enable Diskeeper again to feel safe...

Code: Select all

sudo spctl --master-enable

User avatar
KVRAF

Topic Starter

2980 posts since 13 May, 2004

Post Thu Sep 02, 2021 4:40 am

Tj Shredder wrote:
Wed Sep 01, 2021 8:03 am
I got it running differently now. That's the procedure:
Disable the Gatekeeper with

Code: Select all

sudo spctl --master-disable
Open the app (works now)
Then enable Diskeeper again to feel safe...

Code: Select all

sudo spctl --master-enable
Great that you could make it work! But if you enable gatekeeper again, I guess you get the same error again, right?

User avatar
KVRAF
6369 posts since 6 Jan, 2017 from Outer Space

Post Thu Sep 02, 2021 5:28 am

No, gatekeeper only checks the first time you open an app…

KVRer
5 posts since 13 Mar, 2019

Post Sun Sep 12, 2021 2:41 am

Any other work arounds for getting OSX version working in Catalina. Tried downloading via Chrome & Safari and doing the Gatekeeper thing above, but still not working.

User avatar
KVRAF

Topic Starter

2980 posts since 13 May, 2004

Post Mon Sep 13, 2021 12:59 am

rhawtin wrote:
Sun Sep 12, 2021 2:41 am
Any other work arounds for getting OSX version working in Catalina. Tried downloading via Chrome & Safari and doing the Gatekeeper thing above, but still not working.
I documented all I know so far here: https://github.com/git-moss/ConvertWith ... /README.md

P.S.: Is this you Rich?

User avatar
KVRAF

Topic Starter

2980 posts since 13 May, 2004

Post Sun Oct 10, 2021 8:10 am

Version 3.0 is out and supports now Akai MPC Keygroups!

https://www.youtube.com/watch?v=tVLzKqsqcf8

User avatar
KVRAF

Topic Starter

2980 posts since 13 May, 2004

Post Sat Oct 16, 2021 10:12 am

Version 3.1 is out!
  • New: Akai MPC Keygroup - round-robin groups are now converted (up to 4).
  • New: Akai MPC Keygroup - more than 4 velocity layers can now be converted; this creates multiple keygroups.
  • Fixed: Akai MPC Keygroup - root notes of samples were off by 1.
Enjoy!

KVRist
108 posts since 4 Feb, 2016

Post Mon Oct 25, 2021 4:40 am

Is the GigaSampler format (*.gig) something you are considering to support? LinuxSampler supports that and at least it used to be quite widespread (don't know about today), so there might be quite a few interesting libraries around.

User avatar
KVRAF

Topic Starter

2980 posts since 13 May, 2004

Post Mon Oct 25, 2021 7:27 am

lentferj wrote:
Mon Oct 25, 2021 4:40 am
Is the GigaSampler format (*.gig) something you are considering to support? LinuxSampler supports that and at least it used to be quite widespread (don't know about today), so there might be quite a few interesting libraries around.
No, quite historic IMHO. Is there a documentation available for the format?

KVRist
108 posts since 4 Feb, 2016

Post Mon Oct 25, 2021 7:43 am


KVRist
108 posts since 4 Feb, 2016

Post Mon Oct 25, 2021 8:33 am

I tried to convert some SFZ files that contain relative paths on Linux, but this fails.

Output:

Code: Select all

[...]
Analyzing: /home/lentferj/.music_partition/Samples/Instruments/Drums/All Drums From Mars/808 From Mars/SFZ/808 From Mars/02. Kits/Clean Kit 01 - 808.sfz
Sample file does not exist: /home/lentferj/.music_partition/Samples/Instruments/Drums/All Drums From Mars/808 From Mars/SFZ/808 From Mars/02. Kits/..\..\..\WAV\02. Kits\01. Clean Kit 01\Claves A 808.wav
Sample file does not exist: /home/lentferj/.music_partition/Samples/Instruments/Drums/All Drums From Mars/808 From Mars/SFZ/808 From Mars/02. Kits/..\..\..\WAV\02. Kits\01. Clean Kit 01\Cowbell A 808.wav
Sample file does not exist: /home/lentferj/.music_partition/Samples/Instruments/Drums/All Drums From Mars/808 From Mars/SFZ/808 From Mars/02. Kits/..\..\..\WAV\02. Kits\01. Clean Kit 01\Cym A 808 Decay C 01.wav
Sample file does not exist: /home/lentferj/.music_partition/Samples/Instruments/Drums/All Drums From Mars/808 From Mars/SFZ/808 From Mars/02. Kits/..\..\..\WAV\02. Kits\01. Clean Kit 01\Maracas B 808.wav
Sample file does not exist: /home/lentferj/.music_partition/Samples/Instruments/Drums/All Drums From Mars/808 From Mars/SFZ/808 From Mars/02. Kits/..\..\..\WAV\02. Kits\01. Clean Kit 01\CH Combo 808.wav
Sample file does not exist: /home/lentferj/.music_partition/Samples/Instruments/Drums/All Drums From Mars/808 From Mars/SFZ/808 From Mars/02. Kits/..\..\..\WAV\02. Kits\01. Clean Kit 01\OH 808 Decay 05.wav
Sample file does not exist: /home/lentferj/.music_partition/Samples/Instruments/Drums/All Drums From Mars/808 From Mars/SFZ/808 From Mars/02. Kits/..\..\..\WAV\02. Kits\01. Clean Kit 01\BD A 808 Decay C 04.wav
Sample file does not exist: /home/lentferj/.music_partition/Samples/Instruments/Drums/All Drums From Mars/808 From Mars/SFZ/808 From Mars/02. Kits/..\..\..\WAV\02. Kits\01. Clean Kit 01\BD A 808 Decay F 04.wav
Sample file does not exist: /home/lentferj/.music_partition/Samples/Instruments/Drums/All Drums From Mars/808 From Mars/SFZ/808 From Mars/02. Kits/..\..\..\WAV\02. Kits\01. Clean Kit 01\BD B 808 Decay C 02.wav
Sample file does not exist: /home/lentferj/.music_partition/Samples/Instruments/Drums/All Drums From Mars/808 From Mars/SFZ/808 From Mars/02. Kits/..\..\..\WAV\02. Kits\01. Clean Kit 01\Clap A 808 Tape.wav
Sample file does not exist: /home/lentferj/.music_partition/Samples/Instruments/Drums/All Drums From Mars/808 From Mars/SFZ/808 From Mars/02. Kits/..\..\..\WAV\02. Kits\01. Clean Kit 01\Rim Shot A 808.wav
Sample file does not exist: /home/lentferj/.music_partition/Samples/Instruments/Drums/All Drums From Mars/808 From Mars/SFZ/808 From Mars/02. Kits/..\..\..\WAV\02. Kits\01. Clean Kit 01\SD C 808 Tone A 05.wav
Sample file does not exist: /home/lentferj/.music_partition/Samples/Instruments/Drums/All Drums From Mars/808 From Mars/SFZ/808 From Mars/02. Kits/..\..\..\WAV\02. Kits\01. Clean Kit 01\SD C 808 Tone C 05.wav
Sample file does not exist: /home/lentferj/.music_partition/Samples/Instruments/Drums/All Drums From Mars/808 From Mars/SFZ/808 From Mars/02. Kits/..\..\..\WAV\02. Kits\01. Clean Kit 01\Tom Hi B 808 08.wav
Sample file does not exist: /home/lentferj/.music_partition/Samples/Instruments/Drums/All Drums From Mars/808 From Mars/SFZ/808 From Mars/02. Kits/..\..\..\WAV\02. Kits\01. Clean Kit 01\Tom Low B 808 11.wav
Sample file does not exist: /home/lentferj/.music_partition/Samples/Instruments/Drums/All Drums From Mars/808 From Mars/SFZ/808 From Mars/02. Kits/..\..\..\WAV\02. Kits\01. Clean Kit 01\Tom Mid B 808 11.wav
Unsupported SFZ opcodes: volume, amp_veltrack, pitchlfo_freq, pitch_keycenter, hikey, ampeg_release, bend_up, lokey, end, bend_down
Mapping: /Clean Kit 01 - 808.sfz
[...]
The original SFZ file looks like this:

Code: Select all

/////////////////////////////////////////////////////////////////////////////
// sfz definition file
// copyright Chicken Systems, Inc.
// -------------------------------------------------------------------------
// Application: Translator 6 6.1, Build 3
// Vendor: 


<region> sample=..\..\..\WAV\02. Kits\03. Cleancut Kit\Cowbell 808 Color Short 03.wav lokey=74 hikey=74 end=21416 pitch_keycenter=74 bend_up=200 bend_down=-200 volume=-6 amp_veltrack=40.944881 ampeg_release=20 pitchlfo_freq=0.1 

<region> sample=..\..\..\WAV\02. Kits\03. Cleancut Kit\Cym A 808 Tape Decay C 01.wav lokey=70 hikey=70 end=222222 pitch_keycenter=70 bend_up=200 bend_down=-200 volume=-6 amp_veltrack=40.944881 ampeg_release=20 pitchlfo_freq=0.1 

<region> sample=..\..\..\WAV\02. Kits\03. Cleancut Kit\Maracas B 808 Tape.wav lokey=75 hikey=75 end=1891 pitch_keycenter=75 bend_up=200 bend_down=-200 volume=-6 amp_veltrack=40.944881 ampeg_release=20 pitchlfo_freq=0.1 

<region> sample=..\..\..\WAV\02. Kits\03. Cleancut Kit\CH A 808 Tape.wav lokey=66 hikey=66 end=6365 pitch_keycenter=66 bend_up=200 bend_down=-200 volume=-6 amp_veltrack=40.944881 ampeg_release=20 pitchlfo_freq=0.1 

<region> sample=..\..\..\WAV\02. Kits\03. Cleancut Kit\OH 808 Tape Decay 02.wav lokey=68 hikey=68 end=6644 pitch_keycenter=68 bend_up=200 bend_down=-200 volume=-6 amp_veltrack=40.944881 ampeg_release=20 pitchlfo_freq=0.1 

<region> sample=..\..\..\WAV\02. Kits\03. Cleancut Kit\BD 808 Mid Color A 05.wav lokey=61 hikey=61 end=12492 pitch_keycenter=61 bend_up=200 bend_down=-200 volume=-6 amp_veltrack=40.944881 ampeg_release=20 pitchlfo_freq=0.1 

<region> sample=..\..\..\WAV\02. Kits\03. Cleancut Kit\BD 808 Noise 01.wav lokey=62 hikey=62 end=129160 pitch_keycenter=62 bend_up=200 bend_down=-200 volume=-6 amp_veltrack=40.944881 ampeg_release=20 pitchlfo_freq=0.1 

<region> sample=..\..\..\WAV\02. Kits\03. Cleancut Kit\BD 808 Sat Click Decay B 02.wav lokey=60 hikey=60 end=27392 pitch_keycenter=60 bend_up=200 bend_down=-200 volume=-6 amp_veltrack=40.944881 ampeg_release=20 pitchlfo_freq=0.1 

<region> sample=..\..\..\WAV\02. Kits\03. Cleancut Kit\Clap 808 Color 03.wav lokey=73 hikey=73 end=26642 pitch_keycenter=73 bend_up=200 bend_down=-200 volume=-6 amp_veltrack=40.944881 ampeg_release=20 pitchlfo_freq=0.1 

<region> sample=..\..\..\WAV\02. Kits\03. Cleancut Kit\Clap A 808.wav lokey=72 hikey=72 end=50612 pitch_keycenter=72 bend_up=200 bend_down=-200 volume=-6 amp_veltrack=40.944881 ampeg_release=20 pitchlfo_freq=0.1 

<region> sample=..\..\..\WAV\02. Kits\03. Cleancut Kit\Rim Shot A 808 Tape.wav lokey=71 hikey=71 end=1128 pitch_keycenter=71 bend_up=200 bend_down=-200 volume=-6 amp_veltrack=40.944881 ampeg_release=20 pitchlfo_freq=0.1 

<region> sample=..\..\..\WAV\02. Kits\03. Cleancut Kit\SD 808 Crisp B 02.wav lokey=63 hikey=63 end=6395 pitch_keycenter=63 bend_up=200 bend_down=-200 volume=-6 amp_veltrack=40.944881 ampeg_release=20 pitchlfo_freq=0.1 

<region> sample=..\..\..\WAV\02. Kits\03. Cleancut Kit\SD B 808 Tape Tone C 06.wav lokey=64 hikey=64 end=5649 pitch_keycenter=64 bend_up=200 bend_down=-200 volume=-6 amp_veltrack=40.944881 ampeg_release=20 pitchlfo_freq=0.1 

<region> sample=..\..\..\WAV\02. Kits\03. Cleancut Kit\Tom Hi A 808 08.wav lokey=69 hikey=69 end=19828 pitch_keycenter=69 bend_up=200 bend_down=-200 volume=-6 amp_veltrack=40.944881 ampeg_release=20 pitchlfo_freq=0.1 

<region> sample=..\..\..\WAV\02. Kits\03. Cleancut Kit\Tom Low A 808 03.wav lokey=65 hikey=65 end=34544 pitch_keycenter=65 bend_up=200 bend_down=-200 volume=-6 amp_veltrack=40.944881 ampeg_release=20 pitchlfo_freq=0.1 

<region> sample=..\..\..\WAV\02. Kits\03. Cleancut Kit\Tom Mid A 808 08.wav lokey=67 hikey=67 end=23012 pitch_keycenter=67 bend_up=200 bend_down=-200 volume=-6 amp_veltrack=40.944881 ampeg_release=20 pitchlfo_freq=0.1 
I think on Linux you need to convert the backslash folder separator to a slash?

User avatar
KVRAF

Topic Starter

2980 posts since 13 May, 2004

Post Tue Oct 26, 2021 2:02 am

lentferj wrote:
Mon Oct 25, 2021 8:33 am
I tried to convert some SFZ files that contain relative paths on Linux, but this fails.

Output:

Code: Select all

[...]
Analyzing: /home/lentferj/.music_partition/Samples/Instruments/Drums/All Drums From Mars/808 From Mars/SFZ/808 From Mars/02. Kits/Clean Kit 01 - 808.sfz
Sample file does not exist: /home/lentferj/.music_partition/Samples/Instruments/Drums/All Drums From Mars/808 From Mars/SFZ/808 From Mars/02. Kits/..\..\..\WAV\02. Kits\01. Clean Kit 01\Claves A 808.wav
Sample file does not exist: /home/lentferj/.music_partition/Samples/Instruments/Drums/All Drums From Mars/808 From Mars/SFZ/808 From Mars/02. Kits/..\..\..\WAV\02. Kits\01. Clean Kit 01\Cowbell A 808.wav
Sample file does not exist: /home/lentferj/.music_partition/Samples/Instruments/Drums/All Drums From Mars/808 From Mars/SFZ/808 From Mars/02. Kits/..\..\..\WAV\02. Kits\01. Clean Kit 01\Cym A 808 Decay C 01.wav
Sample file does not exist: /home/lentferj/.music_partition/Samples/Instruments/Drums/All Drums From Mars/808 From Mars/SFZ/808 From Mars/02. Kits/..\..\..\WAV\02. Kits\01. Clean Kit 01\Maracas B 808.wav
Sample file does not exist: /home/lentferj/.music_partition/Samples/Instruments/Drums/All Drums From Mars/808 From Mars/SFZ/808 From Mars/02. Kits/..\..\..\WAV\02. Kits\01. Clean Kit 01\CH Combo 808.wav
Sample file does not exist: /home/lentferj/.music_partition/Samples/Instruments/Drums/All Drums From Mars/808 From Mars/SFZ/808 From Mars/02. Kits/..\..\..\WAV\02. Kits\01. Clean Kit 01\OH 808 Decay 05.wav
Sample file does not exist: /home/lentferj/.music_partition/Samples/Instruments/Drums/All Drums From Mars/808 From Mars/SFZ/808 From Mars/02. Kits/..\..\..\WAV\02. Kits\01. Clean Kit 01\BD A 808 Decay C 04.wav
Sample file does not exist: /home/lentferj/.music_partition/Samples/Instruments/Drums/All Drums From Mars/808 From Mars/SFZ/808 From Mars/02. Kits/..\..\..\WAV\02. Kits\01. Clean Kit 01\BD A 808 Decay F 04.wav
Sample file does not exist: /home/lentferj/.music_partition/Samples/Instruments/Drums/All Drums From Mars/808 From Mars/SFZ/808 From Mars/02. Kits/..\..\..\WAV\02. Kits\01. Clean Kit 01\BD B 808 Decay C 02.wav
Sample file does not exist: /home/lentferj/.music_partition/Samples/Instruments/Drums/All Drums From Mars/808 From Mars/SFZ/808 From Mars/02. Kits/..\..\..\WAV\02. Kits\01. Clean Kit 01\Clap A 808 Tape.wav
Sample file does not exist: /home/lentferj/.music_partition/Samples/Instruments/Drums/All Drums From Mars/808 From Mars/SFZ/808 From Mars/02. Kits/..\..\..\WAV\02. Kits\01. Clean Kit 01\Rim Shot A 808.wav
Sample file does not exist: /home/lentferj/.music_partition/Samples/Instruments/Drums/All Drums From Mars/808 From Mars/SFZ/808 From Mars/02. Kits/..\..\..\WAV\02. Kits\01. Clean Kit 01\SD C 808 Tone A 05.wav
Sample file does not exist: /home/lentferj/.music_partition/Samples/Instruments/Drums/All Drums From Mars/808 From Mars/SFZ/808 From Mars/02. Kits/..\..\..\WAV\02. Kits\01. Clean Kit 01\SD C 808 Tone C 05.wav
Sample file does not exist: /home/lentferj/.music_partition/Samples/Instruments/Drums/All Drums From Mars/808 From Mars/SFZ/808 From Mars/02. Kits/..\..\..\WAV\02. Kits\01. Clean Kit 01\Tom Hi B 808 08.wav
Sample file does not exist: /home/lentferj/.music_partition/Samples/Instruments/Drums/All Drums From Mars/808 From Mars/SFZ/808 From Mars/02. Kits/..\..\..\WAV\02. Kits\01. Clean Kit 01\Tom Low B 808 11.wav
Sample file does not exist: /home/lentferj/.music_partition/Samples/Instruments/Drums/All Drums From Mars/808 From Mars/SFZ/808 From Mars/02. Kits/..\..\..\WAV\02. Kits\01. Clean Kit 01\Tom Mid B 808 11.wav
Unsupported SFZ opcodes: volume, amp_veltrack, pitchlfo_freq, pitch_keycenter, hikey, ampeg_release, bend_up, lokey, end, bend_down
Mapping: /Clean Kit 01 - 808.sfz
[...]
The original SFZ file looks like this:

Code: Select all

/////////////////////////////////////////////////////////////////////////////
// sfz definition file
// copyright Chicken Systems, Inc.
// -------------------------------------------------------------------------
// Application: Translator 6 6.1, Build 3
// Vendor: 


<region> sample=..\..\..\WAV\02. Kits\03. Cleancut Kit\Cowbell 808 Color Short 03.wav lokey=74 hikey=74 end=21416 pitch_keycenter=74 bend_up=200 bend_down=-200 volume=-6 amp_veltrack=40.944881 ampeg_release=20 pitchlfo_freq=0.1 

<region> sample=..\..\..\WAV\02. Kits\03. Cleancut Kit\Cym A 808 Tape Decay C 01.wav lokey=70 hikey=70 end=222222 pitch_keycenter=70 bend_up=200 bend_down=-200 volume=-6 amp_veltrack=40.944881 ampeg_release=20 pitchlfo_freq=0.1 

<region> sample=..\..\..\WAV\02. Kits\03. Cleancut Kit\Maracas B 808 Tape.wav lokey=75 hikey=75 end=1891 pitch_keycenter=75 bend_up=200 bend_down=-200 volume=-6 amp_veltrack=40.944881 ampeg_release=20 pitchlfo_freq=0.1 

<region> sample=..\..\..\WAV\02. Kits\03. Cleancut Kit\CH A 808 Tape.wav lokey=66 hikey=66 end=6365 pitch_keycenter=66 bend_up=200 bend_down=-200 volume=-6 amp_veltrack=40.944881 ampeg_release=20 pitchlfo_freq=0.1 

<region> sample=..\..\..\WAV\02. Kits\03. Cleancut Kit\OH 808 Tape Decay 02.wav lokey=68 hikey=68 end=6644 pitch_keycenter=68 bend_up=200 bend_down=-200 volume=-6 amp_veltrack=40.944881 ampeg_release=20 pitchlfo_freq=0.1 

<region> sample=..\..\..\WAV\02. Kits\03. Cleancut Kit\BD 808 Mid Color A 05.wav lokey=61 hikey=61 end=12492 pitch_keycenter=61 bend_up=200 bend_down=-200 volume=-6 amp_veltrack=40.944881 ampeg_release=20 pitchlfo_freq=0.1 

<region> sample=..\..\..\WAV\02. Kits\03. Cleancut Kit\BD 808 Noise 01.wav lokey=62 hikey=62 end=129160 pitch_keycenter=62 bend_up=200 bend_down=-200 volume=-6 amp_veltrack=40.944881 ampeg_release=20 pitchlfo_freq=0.1 

<region> sample=..\..\..\WAV\02. Kits\03. Cleancut Kit\BD 808 Sat Click Decay B 02.wav lokey=60 hikey=60 end=27392 pitch_keycenter=60 bend_up=200 bend_down=-200 volume=-6 amp_veltrack=40.944881 ampeg_release=20 pitchlfo_freq=0.1 

<region> sample=..\..\..\WAV\02. Kits\03. Cleancut Kit\Clap 808 Color 03.wav lokey=73 hikey=73 end=26642 pitch_keycenter=73 bend_up=200 bend_down=-200 volume=-6 amp_veltrack=40.944881 ampeg_release=20 pitchlfo_freq=0.1 

<region> sample=..\..\..\WAV\02. Kits\03. Cleancut Kit\Clap A 808.wav lokey=72 hikey=72 end=50612 pitch_keycenter=72 bend_up=200 bend_down=-200 volume=-6 amp_veltrack=40.944881 ampeg_release=20 pitchlfo_freq=0.1 

<region> sample=..\..\..\WAV\02. Kits\03. Cleancut Kit\Rim Shot A 808 Tape.wav lokey=71 hikey=71 end=1128 pitch_keycenter=71 bend_up=200 bend_down=-200 volume=-6 amp_veltrack=40.944881 ampeg_release=20 pitchlfo_freq=0.1 

<region> sample=..\..\..\WAV\02. Kits\03. Cleancut Kit\SD 808 Crisp B 02.wav lokey=63 hikey=63 end=6395 pitch_keycenter=63 bend_up=200 bend_down=-200 volume=-6 amp_veltrack=40.944881 ampeg_release=20 pitchlfo_freq=0.1 

<region> sample=..\..\..\WAV\02. Kits\03. Cleancut Kit\SD B 808 Tape Tone C 06.wav lokey=64 hikey=64 end=5649 pitch_keycenter=64 bend_up=200 bend_down=-200 volume=-6 amp_veltrack=40.944881 ampeg_release=20 pitchlfo_freq=0.1 

<region> sample=..\..\..\WAV\02. Kits\03. Cleancut Kit\Tom Hi A 808 08.wav lokey=69 hikey=69 end=19828 pitch_keycenter=69 bend_up=200 bend_down=-200 volume=-6 amp_veltrack=40.944881 ampeg_release=20 pitchlfo_freq=0.1 

<region> sample=..\..\..\WAV\02. Kits\03. Cleancut Kit\Tom Low A 808 03.wav lokey=65 hikey=65 end=34544 pitch_keycenter=65 bend_up=200 bend_down=-200 volume=-6 amp_veltrack=40.944881 ampeg_release=20 pitchlfo_freq=0.1 

<region> sample=..\..\..\WAV\02. Kits\03. Cleancut Kit\Tom Mid A 808 08.wav lokey=67 hikey=67 end=23012 pitch_keycenter=67 bend_up=200 bend_down=-200 volume=-6 amp_veltrack=40.944881 ampeg_release=20 pitchlfo_freq=0.1 
I think on Linux you need to convert the backslash folder separator to a slash?
I see. Can you send me the file for testing?

Return to “Controller Scripting”